百度云电影论坛

 找回密码
 立即注册

嫌疑人 Suspect.1960.1080p.BluRay.x264.FLAC.2.0-HANDJOB 5.55GB

[复制链接]

百度云电影 发表于 2021-4-8 19:14:00 | 显示全部楼层 |阅读模式
-->
帖子完整标题:嫌疑人 Suspect.1960.1080p.BluRay.x264.FLAC.2.0-HANDJOB 5.55GB



668b1df58c2d5b875c7b74b8a8f6430a.jpg

[/url]

◎译  名 嫌疑人/The Risk
◎片  名 Suspect
◎年  代 1960
◎产  地 英国
◎类  别 剧情 / 惊悚
◎语  言 英语
◎上映日期 1960-11-15
◎IMDb评分  6.1/10 from 172 users
◎IMDb链接  
◎豆瓣评分 /10 from 0 users
◎豆瓣链接 
◎片  长 81 分钟
◎导  演 约翰·博尔廷 John Boulting / 罗伊·博尔廷 Roy Boulting
◎编  剧 奈吉尔·鲍尔钦 Nigel Balchin / 罗伊·博尔廷 Roy Boulting
◎主  演 彼得·库欣 Peter Cushing
       斯派克·米利甘 Spike Milligan
       伊安·邦纳 Ian Bannen
       索利·沃特斯 Thorley Walters
       布莱恩·奥尔顿 Brian Oulton
       弗吉尼亚·马斯克尔 Virginia Maskell
       雷蒙德·亨特利 Raymond Huntley
       山姆·基德 Sam Kydd
       瓦西里·迪格纳穆 Basil Dignam
       Robert Bruce
       安东尼·布思 Anthony Booth
       杰弗里·拜尔顿 Geoffrey Bayldon
       托尼·布里顿 Tony Britton
       唐纳德·普利森斯 Donald Pleasence
       肯尼思·格里菲思 Kenneth Griffith

◎标  签 @UK/Ireland | *Noir | 英国 | _PeterCushing | PeterCushing | 1960s | -1960s

◎简  介

  A government team researching cures for plague find their results put on the Official Secrets list. One of their number is so incensed by this that he lets the maimed and jealous companion of a female colleague draw him into what, technically, could be a treasonable act.
  
  Tony Britton         ... Dr. Robert Marriott
  
  Virginia Maskell        ... Dr. Lucy Byrne
  
  Ian Bannen        ... Alan Andrews
  
  Kenneth Griffith        ... Dr Shole
  
  Peter Cushing        ... Professor Sewell
  
  Thorley Walters        ... Special Agent Prince
  
  Donald Pleasence        ... Parsons, alias Bill Brown
  
  Spike Milligan        ... Arthur, lab orderly
  
  Raymond Huntley        ... Sir George Gatting, the Minister of Defense
  
  Sam Kydd        ... Slater
  
  Anthony Booth        ... Parkin
  
  Basil Dignam        ... Dr.Childs
  
  Brian Oulton        ... Director
  
  Robert Bruce        ... Levers
  
  John Payne        ... Iverson
Video
ID                                       : 1
Format                                   : AVC
Format/Info                              : Advanced Video Codec
Format profile                           :
Format settings                          : CABAC / 4 Ref Frames
Format settings, CABAC                   : Yes
Format settings, Reference frames        : 4 frames
Codec ID                                 : V_MPEG4/ISO/AVC
Duration                                 : 1 h 21 min
Bit rate                                 : 9 414 kb/s
Width                                    : 1 794 pixels
Height                                   : 1 080 pixels
Display aspect ratio                     : 5:3
Frame rate mode                          : Constant
Frame rate                               : 24.000 FPS
Color space                              : YUV
Chroma subsampling                       : 4:2:0
Bit depth                                : 8 bits
Scan type                                : Progressive
Bits/(Pixel*Frame)                       : 0.202
Stream size                              : 5.35 GiB (96%)
Writing library                          : x264 core 157 r2935 545de2f
Encoding settings                        : cabac=1 / ref=4 / deblock=1:-3:-3 / analyse=0x3:0x133 / me=umh / subme=10 / psy=1 / psy_rd=1.00:0.00 / mixed_ref=1 / me_range=32 / chroma_me=1 / trellis=2 / 8x8dct=1 / cqm=0 / deadzone=21,11 / fast_pskip=0 / chroma_qp_offset=-2 / threads=18 / lookahead_threads=4 / sliced_threads=0 / nr=0 / decimate=0 / interlaced=0 / bluray_compat=0 / constrained_intra=0 / bframes=16 / b_pyramid=2 / b_adapt=2 / b_bias=0 / direct=3 / weightb=1 / open_gop=0 / weightp=2 / keyint=240 / keyint_min=24 / scenecut=40 / intra_refresh=0 / rc_lookahead=60 / rc=crf / mbtree=0 / crf=19.0 / qcomp=0.60 / qpmin=0 / qpmax=69 / qpstep=4 / vbv_maxrate=62500 / vbv_bufsize=78125 / crf_max=0.0 / nal_hrd=none / filler=0 / ip_ratio=1.40 / pb_ratio=1.30 / aq=2:1.00
Default                                  : Yes
Forced                                   : No
Color range                              : Limited
Color primaries                          : BT.709
Transfer characteristics                 : BT.709
Matrix coefficients                      : BT.709

Audio
ID                                       : 2
Format                                   : FLAC
Format/Info                              : Free Lossless Audio Codec
Codec ID                                 : A_FLAC
Duration                                 : 1 h 21 min
Bit rate mode                            : Variable
Bit rate                                 : 346 kb/s
Channel(s)                               : 2 channels
Channel layout                           : L R
Sampling rate                            : 48.0 kHz
Frame rate                               : 11.719 FPS (4096 SPF)
Bit depth                                : 16 bits
Compression mode                         : Lossless
Stream size                              : 202 MiB (4%)
Language                                 : English
Default                                  : Yes
Forced                                   : No

Text
ID                                       : 3
Format                                   : UTF-8
Codec ID                                 : S_TEXT/UTF8
Codec ID/Info                            : UTF-8 Plain Text
Duration                                 : 1 h 21 min
Bit rate                                 : 97 b/s
Count of elements                        : 1832
Stream size                              : 57.9 KiB (0%)
Language                                 : English
Default                                  : No
Forced                                   : No

Menu
00:00:00.000                             : :Chapter 1
00:07:55.958                             : :Chapter 2
00:12:14.458                             : :Chapter 3
00:17:03.167                             : :Chapter 4
00:24:39.625                             : :Chapter 5
00:31:45.417                             : :Chapter 6
00:39:28.833                             : :Chapter 7
00:44:28.625                             : :Chapter 8
00:53:17.625                             : :Chapter 9
01:01:26.500                             : :Chapter 10
01:07:02.083                             : :Chapter 11
01:15:27.208                             : :Chapter 12

623a5560bc50eab2d97842b3ffc9cd6c.png

[/url]bf671cdbbced44f4bf9b735f5d9e1fef.png

[/url]66c152ba2c8ead1f3128bac891d81a19.png

[/url]



                                                                                                                                                                                                        
                                                                                                                                                                                                                                                                                                                                                                                                                                                                                                                                                                                                                                                                                                                                                                                                                                                        
1a5a3b17de2e02e9424b6a959a6b21b5.zip (28.43 KB)

回复

使用道具 举报

百度云电影论坛 ( 辽ICP备17019482号-3 )

本网站所有资源来自网络,如无意中侵犯了您的权益,请发邮件至 [email protected],立即清除相关链接

GMT+8, 2021-4-21 16:57 , Processed in 0.102486 second(s), 21 queries .

Powered by Discuz! X3.2

© 2001-2013 Comsenz Inc.

快速回复 返回顶部 返回列表